The Kapil Sharma Show 12 Jan 2019 720p 4 Torrent Free Download

Seeders : 50   &   Leechers : 410      13-01-2019 (1 week)
The Kapil Sharma Show 12 Jan 2019 720p 4 Torrent Download
Added: ago by uploader00 ***** in TV   459.1 MB   Hits : 18
Info Hash: 38E145633A7D319DCB44BF39B840713592B16519 Download
The Kapil Sharma Show 12 Jan 2019 720p 4 Torrent Download

Anonymous and Direct Download movies , software , shows...

Fast Safe Anonymous
movies, software, shows...

Torrent Description



Visit http://world4ufreemovies.xyz for more content

Quote:

Format                      : Matroska
Format version              : Version 4 / Version 2
File size                   : 459 MiB
Duration                    : 1 h 11 min
Overall bit rate            : 898 kb/s
Movie name                  : This video is encoded by World4ufreemovies.xyz !!!
Encoded date                : UTC 2019-01-13 04:25:27
Writing application         : mkvmerge v21.0.0 ('Tardigrades Will Inherit The Earth') 64-bit
Writing library             : libebml v1.3.5 + libmatroska v1.4.8

Video
ID                          : 1
Format                      : AVC
Format/Info                 : Advanced Video Codec
Format profile              : [email protected]
Format settings, CABAC      : Yes
Format settings, RefFrames  : 4 frames
Codec ID                    : V_MPEG4/ISO/AVC
Duration                    : 1 h 11 min
Bit rate                    : 800 kb/s
Width                       : 960 pixels
Height                      : 540 pixels
Display aspect ratio        : 16:9
Frame rate mode             : Constant
Frame rate                  : 25.000 FPS
Color space                 : YUV
Chroma subsampling          : 4:2:0
Bit depth                   : 8 bits
Scan type                   : Progressive
Bits/(Pixel*Frame)          : 0.062
Stream size                 : 409 MiB (89%)
Title                       : World4ufreemovies.xyz
Writing library             : Zencoder Video Encoding System
Default                     : Yes
Forced                      : No
Color range                 : Limited
Color primaries             : BT.709
Transfer characteristics    : BT.709
Matrix coefficients         : BT.709

Audio
ID                          : 2
Format                      : AAC
Format/Info                 : Advanced Audio Codec
Format profile              : LC
Codec ID                    : A_AAC
Duration                    : 1 h 11 min
Bit rate                    : 96.0 kb/s
Channel(s)                  : 2 channels
Channel positions           : Front: L R
Sampling rate               : 48.0 kHz
Frame rate                  : 46.875 FPS (1024 SPF)
Compression mode            : Lossy
Delay relative to video     : -80 ms
Stream size                 : 49.1 MiB (11%)
Title                       : World4ufreemovies.xyz
Default                     : Yes
Forced                      : No



Screenshots


Visit http://world4ufreemovies.xyz for more content



Visit http://world4ufreemovies.xyz for more content



Visit http://world4ufreemovies.xyz for more content



Visit http://world4ufreemovies.xyz for more content






Sharing Widget


No Comments For This Torrent . Be The First to Comment

You must Login to Comment . Click Here to Login

Menu 1

Some content in menu 1.

The Kapil Sharma Show 12 Jan 2019 720p 400Mb Web-DL Full Show (Size: 459.1 MB)
  The Kapil Sharma Show 12 Jan 2019 720p 400Mb Web-DL Full Show 459.1 MB
tracker name
udp://tracker.leechers-paradise.org:6969/announce
udp://zer0day.ch:1337/announce
udp://open.demonii.com:1337/announce
udp://tracker.coppersurfer.tk:6969/announce
udp://exodus.desync.com:6969/announce
µTorrent compatible trackers list

Relative Torrents

Torrent Name Size Age SEED LEECH
Calvin Harris - Essentials (2019) Mp3 32kbps Songs [PMEDIA]
Posted by    PmMedia   in   Music
244.9 MB 1 second 206 952
WWE NXT UK 2019 01 23 WEB h264-HEEL [ezt]
Posted by    EZTVag   in   TV
655.4 MB 2 minutes 730 511
Guys Grocery Games S19E17 DDD Family Tounament Finale 720p WEBRip x264-CAFFEiNE
Posted by    EZTVag   in   TV
1.4 GB 2 minutes 432 275
The Gifted S02E13 teMpted 720p WEB-DL DD 1 H 264-LAZY[TGx]
Posted by    mazemaze16   in   TV
1.4 GB 2 minutes 745 727
Coronation Street 2019 01 23 Part 1 WEB 264-KOMPOST [eztv]
Posted by    EZTVag   in   TV
233.1 MB 2 minutes 590 588